Star Wars VI (1983) BDrip 1080p, Cast Ing, C.Ficcion, VS, dvdrip latino Descargar Gratis

Star Wars VI (1983) BDrip 1080p, Cast Ing, C.Ficcion, VS, dvdrip latino Descargar Gratis castellano y español latino, subtitulada, ver online, full HD, rmvb, descargar en 1 link, dvdrip descargar, torrent, mediafire, mf, putlocker, MEGA











Título original
Star Wars. Episode VI: Return of the Jedi
Año
1983
Duración
133 min.
País
Estados Unidos
Director
Richard Marquand
Guión
Lawrence Kasdan & George Lucas
Música
John Williams
Fotografía
Alan Hume
Reparto
Mark Hamill, Harrison Ford, Carrie Fisher, David Prowse, Ian McDiarmid, Billy Dee Williams, Frank Oz, Alec Guinness, Anthony Daniels, Kenny Baker, Peter Mayhew, Sebastian Shaw, Warwick Davis, Caroline Blakiston, Dermot Crowley, Kenneth Colley, Denis Lawson, Michael Pennington
Productora
20th Century Fox
Género
Ciencia ficción. Aventuras | Aventura espacial. Secuela. Película de culto. Star Wars
Web Oficial
http://www.starwars.com

Sinopsis
Para ir a Tatooine y liberar a Han Solo, Luke Skywalker y la princesa Leia deben infiltrarse en la peligrosa guarida de Jabba the Hutt, el gángster más temido de la galaxia. Una vez reunidos, el equipo recluta a tribus de Ewoks para combatir a las fuerzas imperiales en los bosques de la luna de Endor. Mientras tanto, el Emperador y Darth Vader conspiran para atraer a Luke al lado oscuro, pero el joven está decidido a reavivar el espíritu del Jedi en su padre. La guerra civil galáctica termina con un último enfrentamiento entre las fuerzas rebeldes unificadas y una segunda Estrella de la Muerte, indefensa e incompleta, en una batalla que decidirá el destino de la galaxia. (FILMAFFINITY)
[YOUTUBE]IiVf6yzDnIw[/YOUTUBE]









General

Format : Matroska
Format version : Version 2
File size : 3.91 GiB
Duration : 2h 14mn
Overall bit rate : 4 160 Kbps
Movie name : Episodio 6 El retorno del Jedi
Encoded date : UTC 2012-11-21 13:18:50
Writing application : mkvmerge v3.4.0 (‘Rapunzel’) realizado en May 15 2010

09:38:20
Writing library : libebml v0.8.0 + libmatroska v0.9.0

Video
ID : 1
Format : AVC
Format/Info : Advanced Video Codec
Format profile : [email protected]
Format settings, CABAC : Yes
Format settings, ReFrames : 4 frames
Codec ID : V_MPEG4/ISO/AVC
Duration : 2h 14mn
Bit rate : 3 450 Kbps
Width : 1 920 pixels
Height : 816 pixels
Display aspect ratio : 2.35:1
Frame rate mode : Constant
Frame rate : 24.000 fps
Original frame rate : 23.976 fps
Color space : YUV
Chroma subsampling : 4:2:0
Bit depth : 8 bits
Scan type : Progressive
Bits/(Pixel*Frame) : 0.092
Stream size : 3.17 GiB (81%)
Title : Episodio 6 El retorno del Jedi
Writing library : x264 core 116 r2074 2641b9e
Encoding settings : cabac=1 / ref=4 / deblock=1:0:0 / analyse=0×3:0×133 / me=umh

/ subme=9 / psy=1 / psy_rd=1.00:0.00 / mixed_ref=1 / me_range=16 / chroma_me=1 / trellis=2 / 8x8dct=1 /

cqm=0 / deadzone=21,11 / fast_pskip=1 / chroma_qp_offset=-2 / threads=9 / sliced_threads=0 / nr=0 /

decimate=1 / interlaced=0 / bluray_compat=0 / constrained_intra=0 / bframes=3 / b_pyramid=2 / b_adapt=2

/ b_bias=0 / direct=3 / weightb=1 / open_gop=0 / weightp=2 / keyint=250 / keyint_min=23 / scenecut=40 /

intra_refresh=0 / rc_lookahead=60 / rc=2pass / mbtree=1 / bitrate=3450 / ratetol=1.0 / qcomp=0.60 /

qpmin=10 / qpmax=51 / qpstep=4 / cplxblur=20.0 / qblur=0.5 / ip_ratio=1.40 / aq=1:1.00
Language : Spanish
Default : Yes
Forced : No

Audio http://down.descargarlinki.org/down.php?h=Iw==1
ID : 2
Format : AC-3
Format/Info : Audio Coding 3
Mode extension : CM (complete main)
Format settings, Endianness : Big
Codec ID : A_AC3
Duration : 2h 14mn
Bit rate mode : Constant
Bit rate : 448 Kbps
Channel(s) : 6 channels
Channel positions : Front: L C R, Side: L R, LFE
Sampling rate : 48.0 KHz
Bit depth : 16 bits
Compression mode : Lossy
Delay relative to video : 1s 0ms
Stream size : 432 MiB (11%)
Title : AC3 Castellano
Language : Spanish
Default : Yes
Forced : No

Audio http://down.descargarlinki.org/down.php?h=Iw==2
ID : 5
Format : AC-3
Format/Info : Audio Coding 3
Mode extension : CM (complete main)
Format settings, Endianness : Big
Codec ID : A_AC3
Duration : 2h 14mn
Bit rate mode : Constant
Bit rate : 256 Kbps
Channel(s) : 6 channels
Channel positions : Front: L C R, Side: L R, LFE
Sampling rate : 48.0 KHz
Bit depth : 16 bits
Compression mode : Lossy
Delay relative to video : 1s 0ms
Stream size : 247 MiB (6%)
Title : AC3 Castellano
Language : English
Default : No
Forced : No

Text http://down.descargarlinki.org/down.php?h=Iw==1
ID : 3
Format : UTF-8
Codec ID : S_TEXT/UTF8
Codec ID/Info : UTF-8 Plain Text
Title : Subtitulos Forzados Castellano
Language : Spanish
Default : Yes
Forced : No

Text http://down.descargarlinki.org/down.php?h=Iw==2
ID : 4
Format : UTF-8
Codec ID : S_TEXT/UTF8
Codec ID/Info : UTF-8 Plain Text
Title : Subtitulos Español
Language : Spanish
Default : No
Forced : No

Text http://down.descargarlinki.org/down.php?h=Iw==3
ID : 6
Format : UTF-8
Codec ID : S_TEXT/UTF8
Codec ID/Info : UTF-8 Plain Text
Title : Subtitulos Forzados Ingles
Language : English
Default : No
Forced : No

Text http://down.descargarlinki.org/down.php?h=Iw==4
ID : 7
Format : UTF-8
Codec ID : S_TEXT/UTF8
Codec ID/Info : UTF-8 Plain Text
Title : Subtitulos Inglés
Language : English
Default : No
Forced : No


LINKS INTERCAMBIABLES




Código:
http://linksvv.com/EjyulllD

Descomprimir con Winrar
Star Wars VI (1983) BDrip 1080p, Cast Ing, C.Ficcion, VS, dvdrip latino Descargar Gratis castellano y español latino, subtitulada, ver online, full HD, rmvb, descargar en 1 link, dvdrip descargar, torrent, mediafire, mf, putlocker, MEGA

No comments.

Leave a Reply

You must be logged in to post a comment.